<?xml version="1.0" standalone="no"?>
<!DOCTYPE svg PUBLIC "-//W3C//DTD SVG 1.1//EN" "http://www.w3.org/Graphics/SVG/1.1/DTD/svg11.dtd" >
<svg xmlns="http://www.w3.org/2000/svg">
<metadata></metadata>
<defs>
<font id="SymbolSignsBasisset" horiz-adv-x="1705" >
<font-face units-per-em="2048" ascent="1536" descent="-512" />
<missing-glyph horiz-adv-x="1024" />
<glyph horiz-adv-x="0" />
<glyph horiz-adv-x="2048" />
<glyph unicode=" "  horiz-adv-x="1024" />
<glyph unicode="&#x09;" horiz-adv-x="1024" />
<glyph unicode="&#xa0;" horiz-adv-x="1024" />
<glyph unicode="A" d="M0 721q0 196 97 361.5t263 261.5t361 96q146 0 279.5 -57t229.5 -153t153 -229.5t57 -279.5q0 -195 -96 -361t-261.5 -263t-361.5 -97q-117 0 -227 36.5t-199 103t-155.5 155.5t-103 199t-36.5 227zM162 721q0 -152 74.5 -281t203 -204.5t281.5 -75.5q184 0 330 108 l-783 783q-106 -143 -106 -330zM326 985h32q18 -52 35 -133q6 1 14 1t17 -0.5t14 -0.5l211 -211q-50 12 -80 12q-6 -17 -19.5 -55.5t-19.5 -57.5t-12.5 -52.5t-5.5 -57t9.5 -52.5t25.5 -56q-35 -15 -61.5 -1t-37.5 45q-12 32 -16 68q-2 13 -1 25q0 22 5 41q-19 -13 -23 -45 t2 -63.5t10.5 -62t0.5 -40.5q-45 2 -68.5 19.5t-26 48.5t2.5 60.5t14 67.5t10 58q1 15 1 33q-1 78 -15 202q-18 152 -18 207zM397 1178l781 -781q102 149 102 324q0 113 -44.5 216.5t-119.5 178.5t-178.5 119.5t-216.5 44.5q-175 0 -324 -102zM752 852q67 13 104 55 q19 -5 37 -18t30 -25.5t32.5 -22.5t45.5 -10q4 -24 4 -55q0 -64 -18 -160zM819 471l60 -59q0 -49 32 -58v27l64 -66q-19 0 -45 7.5t-43 9.5h-5q-18 0 -59 -10q-11 26 -11 69q0 35 7 80zM901 942q14 33 61 89.5t60 96.5h35q20 -154 153 -164q3 -17 3 -31q-1 -23 -9 -37 q-14 -22 -39.5 -24.5t-53.5 0t-54 -0.5t-35 -19q-6 4 -26 14.5t-29 16t-23.5 15.5t-24.5 20.5t-18 23.5z" />
<glyph unicode="B" d="M2 578q5 22 21 43l473 473q31 20 72 21q19 0 40 -5q5 6 17.5 21.5t21 24.5t17.5 15q10 6 22.5 8.5t19.5 2.5t22 -2t20 -2q63 61 145 72q8 1 28.5 -2t22.5 2q4 3 12.5 12t12.5 12q36 27 77 27q43 0 91 -29q9 -12 22 -25q30 -48 30 -92q0 -27 -11 -51q-3 -8 -16 -23 t-17 -24t-1.5 -34t-0.5 -42q-10 -74 -70 -131q7 -14 7 -30q0 -20 -12 -42q-22 -40 -67 -67q1 -10 1 -19q0 -54 -21 -84l-473 -473q-32 -19 -68 -21q-2 0 -5 -1q-33 0 -66 22q-26 19 -52 45t-64.5 68.5t-55.5 60.5q-17 17 -49 47t-49.5 47t-41.5 43t-34 45t-18 42 q-5 14 -5 28q0 9 2 17zM68 549q1 -8 5.5 -17t14.5 -20.5t16.5 -18.5t21.5 -21.5t19 -18.5l195 -195q3 -3 18.5 -19t22 -22t19 -16.5t21 -15t15.5 -5.5q10 0 23 7.5t28 20.5t26.5 25t27.5 29t22 23l256 256q7 7 41.5 38t53 52.5t22.5 38.5q3 13 -5.5 28.5t-18 25.5t-31 30 t-29.5 28l-172 172q-10 10 -27.5 29.5t-31.5 33.5t-27 23q-11 7 -22.5 7.5t-20.5 -2.5t-23 -15t-22.5 -20t-26.5 -27q9 -11 27 -27t30 -28t22.5 -25.5t10 -25.5t-13.5 -23q-12 -13 -30 -3.5t-30.5 23.5t-31 34t-31.5 28q-61 -61 -90 -92q8 -9 20.5 -21.5t24 -22.5t22 -22 t16.5 -21.5t5 -20t-10 -19.5t-19.5 -9.5t-20 5.5t-21.5 16.5t-22 22t-22.5 24.5t-21.5 21q-16 -17 -47.5 -49t-48.5 -48q8 -9 21 -21.5t24 -22.5t22 -22t16.5 -21.5t5 -20t-9.5 -19.5t-19.5 -9.5t-20 5.5t-21.5 16.5t-21.5 22t-22 24.5t-21.5 21q-10 -12 -33.5 -33.5 t-36 -38t-12.5 -32.5zM801 1133q132 -136 229 -230q27 28 37.5 60.5t9 58.5t-9.5 61q45 26 52 68q1 7 1 13q0 33 -30 55q-17 13 -37 13q-12 0 -25 -5q-34 -13 -55 -51q-30 2 -57 3.5t-57.5 -9.5t-57.5 -37z" />
<glyph unicode="C" d="M0 719q0 196 97 362t263 262.5t361 96.5t360.5 -96.5t262 -262.5t96.5 -362q0 -146 -57 -279.5t-153 -229.5t-229.5 -153t-279.5 -57t-279.5 57t-230 153t-154 229.5t-57.5 279.5zM88 719q0 -126 47.5 -242t136.5 -205q91 -90 206.5 -138t242.5 -48q126 0 241.5 48.5 t204.5 137.5q90 89 138.5 205t48.5 242q0 128 -48 243.5t-139 204.5q-89 89 -204.5 137t-241.5 48q-127 0 -242.5 -47.5t-206.5 -137.5q-89 -89 -136.5 -204.5t-47.5 -243.5zM315 901v39h33v45h-33v39h41q19 72 76.5 117t132.5 45l64 -6l-15 -58q-22 8 -49 8q-52 0 -90 -29 t-53 -77h174l-8 -39h-174q-6 -20 -2 -45h168l-9 -39h-149q15 -50 54 -79t91 -29q14 0 28.5 2t22.5 4l7 2l10 -58q-29 -10 -70 -10q-77 0 -134.5 47t-74.5 121h-41zM336 346q-2 5 -2 9q0 8 6 14l733 733q7 5 14 5q7 1 15 -7q7 -7 7 -15q0 -7 -7 -14l-733 -733q-6 -6 -15 -6 q-12 0 -18 14zM782 334l33 47q5 -5 15 -13t39.5 -21t58.5 -13q32 0 54 17t22 48q0 25 -22 43t-54 31.5t-64 29t-54 42t-22 63.5q0 45 32.5 79.5t84.5 41.5v57h43v-57q31 -3 58 -14t38 -19l11 -10l-29 -51q-39 39 -96 39q-34 0 -57 -19.5t-23 -46.5q0 -23 22 -40.5t53.5 -30 t63.5 -28t54 -43.5t22 -67q0 -47 -31.5 -80.5t-85.5 -39.5v-58h-43v58q-36 4 -66.5 17.5t-43.5 25.5z" />
<glyph unicode="D" d="M-51 537l112 112l398 -399v938h155v-938l400 399l110 -112l-587 -588z" />
<glyph unicode="E" d="M0 721q0 146 57.5 279.5t154 229.5t230 153t279.5 57t279.5 -57t229.5 -153t153 -229.5t57 -279.5t-57 -279.5t-153 -230t-229.5 -154t-279.5 -57.5t-279.5 57.5t-230 154t-154 230t-57.5 279.5zM88 721q0 -127 47.5 -242.5t136.5 -206.5q91 -89 206.5 -136.5 t242.5 -47.5q126 0 241.5 47.5t204.5 136.5q91 91 139 206.5t48 242.5q0 126 -48 241.5t-139 204.5q-89 91 -204.5 139t-241.5 48q-127 0 -242.5 -48t-206.5 -139q-89 -89 -136.5 -204.5t-47.5 -241.5zM219 489v58h1012v-58h-1012zM219 592v360h225v-75h-137v-66h109v-76 h-109v-67h144v-76h-232zM475 592l109 178l-109 182h98l41 -73l21 -48h2q10 25 22 48l39 73h101l-111 -182l111 -178h-99l-41 76l-22 45h-2q-9 -22 -21 -45l-43 -76h-96zM831 592v360h89v-360h-89zM950 877v75h305v-75h-108v-285h-88v285h-109z" />
<glyph unicode="F" horiz-adv-x="1126" d="M4 758l172 473q12 33 45.5 56.5t69.5 23.5h198q36 0 69.5 -23.5t43.5 -56.5l174 -473q1 -4 1 -9q0 -7 -3 -14q-5 -11 -16 -16l-37 -12q-12 -4 -23 0.5t-14 15.5l-141 385v-68l114 -391q-68 -41 -159 -41q-106 0 -254 51q-21 8 -54 25t-51 23l97 333v68l-140 -385 q-5 -11 -16 -15.5t-21 -0.5l-39 14q-12 3 -16 14q-2 6 -2 12q0 5 2 11zM84 518l47 162q79 -39 177.5 -65.5t189.5 -26.5h2q99 0 166 33l28 -103h-207v-489q0 -12 -8 -20.5t-20 -8.5h-41q-11 0 -19.5 7.5t-9.5 17.5q0 -10 -9 -17.5t-20 -7.5h-38q-12 0 -21.5 8.5t-9.5 20.5 v489h-207zM268 1468q0 50 35 84.5t84 34.5t84 -34.5t35 -84.5q0 -49 -34.5 -83.5t-84.5 -34.5t-84.5 34.5t-34.5 83.5z" />
<glyph unicode="G" d="M0 498q255 129 580 135v176h36q29 0 49.5 20.5t20.5 49.5t-20.5 50t-49.5 21q-37 0 -57 -30l-59 41q43 59 116 59q59 0 100.5 -41.5t41.5 -99.5q0 -49 -31 -87.5t-78 -50.5v-108q328 -6 578 -139l-31 -64q-260 125 -586 125q-321 0 -573 -121z" />
<glyph unicode="H" d="M0 719q0 195 96.5 361t262.5 263t362 97q146 0 279.5 -57.5t229.5 -154t153 -230t57 -279.5t-57 -279.5t-153 -229.5t-229.5 -153t-279.5 -57q-196 0 -362 96.5t-262.5 262t-96.5 360.5zM88 719q0 -126 47.5 -242t136.5 -205t205.5 -137.5t243.5 -48.5q126 0 241.5 48.5 t204.5 137.5q90 90 138.5 205.5t48.5 241.5t-48.5 241t-138.5 207q-89 89 -204.5 137t-241.5 48q-127 0 -243.5 -48t-205.5 -137q-184 -187 -184 -448zM246 627v186h381v381h186v-381h381v-186h-381v-381h-186v381h-381zM332 287v295h108q46 0 73.5 -20.5t27.5 -57.5 q0 -44 -35 -62v-2q47 -13 47 -65q0 -46 -32.5 -67t-80.5 -21h-108zM346 854v295h184v-62h-112v-53h90v-61h-90v-58h119v-61h-191zM403 348h43q14 0 23.5 9t9.5 22t-8.5 22t-24.5 9h-43v-62zM403 467h37q13 0 20 8.5t7 20.5q0 10 -7 17t-20 7h-37v-53zM866 436q0 64 43.5 107 t110.5 43t110.5 -43t43.5 -107q0 -65 -43.5 -109t-110.5 -44t-110.5 44t-43.5 109zM893 854v295h74v-117h106v117h72v-295h-72v117h-106v-117h-74zM940 436q0 -38 23 -63t57 -25t57 25t23 63q0 35 -23 59.5t-57 24.5t-57 -24.5t-23 -59.5z" />
<glyph unicode="I" d="M0 719q0 146 57 279.5t153 230t229.5 154t279.5 57.5t279.5 -57.5t230 -154t154 -230t57.5 -279.5t-57.5 -279.5t-154 -229.5t-230 -153t-279.5 -57t-279.5 57t-229.5 153t-153 229.5t-57 279.5zM86 719q0 -128 47.5 -243t138.5 -204q89 -90 204.5 -138t242.5 -48 q262 0 448 186q89 89 137 204.5t48 242.5t-47.5 241.5t-137.5 204.5q-187 187 -448 187q-126 0 -242 -48.5t-205 -138.5q-186 -183 -186 -446zM635 270v670h168v-670h-168zM635 1053v149h166v-149h-166z" />
<glyph unicode="J" d="M2 1036q-1 17 -1 32q0 65 13 120q17 67 38 98.5t42 48.5l215 -368q-24 -15 -27.5 -43.5t5 -56.5t26.5 -68q61 -135 150 -258q66 -89 101 -117q20 -16 40 -16q14 0 29 8l209 -359q-21 -13 -62 -17h-13q-38 0 -97 18q-69 20 -144 68.5t-170 157t-182 263.5 q-83 147 -125.5 276.5t-46.5 212.5zM123 1352l102 59q10 7 23 7q5 0 11 -2q19 -4 28 -21l168 -289q10 -15 5.5 -34.5t-22.5 -29.5l-100 -59zM659 432l103 60q10 6 22 6q6 0 12 -2q19 -4 29 -21l162 -278q7 -12 7 -25q0 -6 -1 -11q-4 -19 -22 -28l-101 -59z" />
<glyph unicode="K" d="M0 719q0 196 96.5 362t262 262.5t360.5 96.5t361 -96.5t263 -262.5t97 -362q0 -146 -57.5 -279.5t-154 -229.5t-230 -153t-279.5 -57t-279.5 57t-229.5 153t-153 229.5t-57 279.5zM86 719q0 -127 48 -242.5t138 -204.5q89 -89 205 -137.5t242 -48.5q127 0 242 48t206 138 q89 89 137 205t48 242q0 127 -48 243t-137 205q-188 185 -448 185q-126 0 -242 -48t-205 -137q-90 -89 -138 -204.5t-48 -243.5zM416 217h241v307h170q144 0 234 96.5t90 247.5q0 150 -90 246t-234 96h-411v-993zM657 733v268h125q59 0 90 -36t31 -97q0 -62 -32 -98.5 t-93 -36.5h-121z" />
<glyph unicode="L" d="M0 537l588 587l112 -112l-399 -398h938v-155h-938l399 -400l-112 -110z" />
<glyph unicode="M" horiz-adv-x="1126" d="M0 725v500h2q2 35 35.5 60.5t79.5 25.5h303q44 0 77 -23t38 -57v-506q0 -11 -8.5 -20t-20.5 -9h-39q-12 0 -21.5 9t-9.5 20v403h-20v-340h-295v340h-23v-403q0 -11 -8 -20t-20 -9h-39q-12 0 -21.5 9t-9.5 20zM121 29v739h295v-739q0 -12 -9 -20.5t-20 -8.5h-65 q-12 0 -20.5 8.5t-8.5 20.5v647h-49v-647q0 -12 -8.5 -20.5t-20.5 -8.5h-65q-12 0 -20.5 8.5t-8.5 20.5zM147 1468q0 50 34.5 84.5t84.5 34.5t84.5 -34.5t34.5 -84.5q0 -49 -34.5 -83.5t-84.5 -34.5t-84.5 34.5t-34.5 83.5z" />
<glyph unicode="N" d="M0 721q0 147 57.5 280t154 229t230 153t279.5 57t279.5 -57t229.5 -153t153 -229.5t57 -279.5t-57 -279.5t-153 -230t-229 -154t-280 -57.5t-280.5 57t-230 153.5t-153.5 230t-57 280.5zM162 721q0 -91 28 -176.5t79.5 -154.5t120.5 -120.5t154.5 -79.5t176.5 -28 q188 0 330 108l-301 301h-504v129h375l-353 351q-106 -143 -106 -330zM397 1178l477 -478h179v-129h-49l174 -174q102 149 102 324q0 113 -44.5 216.5t-119.5 178.5t-178.5 119.5t-216.5 44.5q-175 0 -324 -102zM672 1106q0 56 35.5 93.5t93.5 37.5v-43q-40 0 -63 -25 t-23 -63q0 -39 27 -62.5t71 -23.5h8q11 0 19.5 -11.5t1.5 -21.5q-11 -18 -11 -35q0 -26 16 -44.5t42 -18.5h115q53 0 84.5 -28.5t31.5 -78.5v-57h-43v57q0 33 -18 45q-19 19 -55 19h-115q-44 0 -72.5 31t-28.5 75q0 13 3 25q-51 6 -85 42t-34 87zM838 1151v45 q62 0 106.5 -41t44.5 -102q0 -27 -14 -62h31q78 0 130 -55.5t52 -132.5v-78h-43v78q0 60 -39.5 102.5t-99.5 42.5h-68q-11 0 -18.5 11t0.5 24q26 33 26 70q-3 44 -32.5 71t-75.5 27zM1077 571v131h43v-131h-43zM1145 571v131h43v-131h-43z" />
<glyph unicode="O" d="M0 719q0 195 96.5 361t262.5 263t362 97q146 0 279.5 -57.5t229.5 -154t153 -230t57 -279.5t-57 -279.5t-153 -229.5t-229.5 -153t-279.5 -57q-196 0 -362 96.5t-262.5 262t-96.5 360.5zM88 719q0 -126 47.5 -242t136.5 -205q186 -186 449 -186q127 0 242 48t204 138 q90 90 138.5 205.5t48.5 241.5t-48.5 241t-138.5 207q-89 89 -204.5 137t-241.5 48q-127 0 -242.5 -47.5t-206.5 -137.5q-184 -187 -184 -448zM145 719q0 239 168 407q82 82 187 125t221 43q237 0 405 -168t168 -407q0 -238 -168 -406t-405 -168q-116 0 -221 43t-187 125 q-168 168 -168 406zM252 612h936v213h-936v-213z" />
<glyph unicode="P" d="M0 721q0 146 57.5 279.5t154 229.5t230 153t279.5 57t279.5 -57t229.5 -153t153 -229.5t57 -279.5t-57 -279.5t-153 -230t-229.5 -154t-279.5 -57.5t-279.5 57.5t-230 154t-154 230t-57.5 279.5zM88 721q0 -127 47.5 -242.5t136.5 -206.5q91 -89 206.5 -136.5 t242.5 -47.5q126 0 241.5 47.5t204.5 136.5q91 91 139 206.5t48 242.5q0 126 -48 241.5t-139 204.5q-89 91 -204.5 139t-241.5 48q-127 0 -242.5 -48t-206.5 -139q-89 -89 -136.5 -204.5t-47.5 -241.5zM190 721q0 -17 12 -29t29 -12h979q17 0 29 12t12 29t-12 29t-29 12 h-979q-17 0 -29 -12t-12 -29zM307 852h55q36 0 58 21t22 57t-22 56t-58 20h-55v-154zM344 885v90h16q41 0 41 -45t-41 -45h-16zM387 410h100v30h-61v31h47v31h-47v28h59v33h-98v-153zM457 930q0 -34 23.5 -57t58.5 -23t57 23t22 57t-22 57t-57 23t-58.5 -23t-23.5 -57z M496 930q0 20 12 32.5t31 12.5q18 0 29.5 -12.5t11.5 -32.5t-11.5 -32.5t-29.5 -12.5q-19 0 -31 12.5t-12 32.5zM514 410h39v71l-2 27q8 -17 14 -27l43 -71h37v153h-37v-98q-6 17 -12 27l-43 71h-39v-153zM664 530h47v-120h39v120h47v33h-133v-33zM694 852h37v98 q6 -16 12 -26l43 -72h39v154h-39v-72l2 -27q-8 17 -12 27l-43 72h-39v-154zM815 410h100v30h-63v31h47v31h-47v28h59v33h-96v-153zM850 930q0 -34 23.5 -57t58.5 -23t57.5 23t22.5 57t-22.5 57t-57.5 23t-58.5 -23t-23.5 -57zM889 930q0 20 12 32.5t31 12.5q18 0 29.5 -12.5 t11.5 -32.5t-11.5 -32.5t-29.5 -12.5q-19 0 -31 12.5t-12 32.5zM942 410h37v51h18l29 -51h41l-31 53l-4 8v2q23 10 23 41q0 49 -60 49h-53v-153zM979 494v36h14q23 0 23 -18t-21 -18h-16zM1020 975h47v-123h39v123h47v31h-133v-31z" />
<glyph unicode="Q" d="M0 719q0 146 57.5 279.5t154 230t230 154t279.5 57.5t279.5 -57.5t229.5 -154t153 -230t57 -279.5t-57 -279.5t-153 -229.5t-229.5 -153t-279.5 -57t-279.5 57t-230 153t-154 229.5t-57.5 279.5zM88 719q0 -128 47.5 -243t136.5 -204q186 -186 449 -186q127 0 242 48 t204 138q90 90 138.5 205t48.5 242t-48.5 241.5t-138.5 204.5q-89 91 -204.5 139t-241.5 48q-127 0 -242.5 -48t-206.5 -139q-89 -89 -136.5 -204t-47.5 -242zM475 1110q4 4 11 10t31 22.5t50.5 29t68 22.5t85.5 10q116 0 201.5 -68t85.5 -180q0 -50 -17 -93t-42.5 -70.5 t-55.5 -55t-55.5 -49t-42.5 -51t-17 -62.5v-51h-162v62q0 53 22.5 96.5t54.5 73t64 56.5t54.5 60t22.5 70q0 46 -36.5 77.5t-90.5 31.5q-33 0 -68 -14t-53 -28l-19 -14zM616 254v156h162v-156h-162z" />
<glyph unicode="R" d="M-51 510v156h938l-400 399l113 111l588 -588l-588 -588l-113 113l400 397h-938z" />
<glyph unicode="S" d="M248 571v129h809v-129h-809zM674 1106q0 41 18.5 73.5t50.5 47.5q23 9 56 12h4v-43q-1 0 -2 -1t-2 -1q-37 0 -59.5 -25.5t-22.5 -62.5t28 -61.5t70 -24.5h8q12 0 20.5 -10.5t0.5 -22.5q-10 -17 -10 -35q0 -26 16 -44.5t41 -18.5h117q52 0 84 -28.5t32 -78.5v-59h-45v59 q0 64 -71 64h-117q-43 0 -71.5 31t-28.5 75q0 9 4 25q-52 6 -86.5 43t-34.5 86zM840 1153v43h4q40 0 74 -18.5t53.5 -50.5t19.5 -72q0 -36 -14 -64h33q38 0 72 -15t58 -40.5t38 -60t14 -72.5v-80h-45v80q0 60 -38.5 102.5t-98.5 42.5h-70q-10 0 -17.5 12t1.5 23q24 35 24 72 q0 43 -29.5 70.5t-74.5 27.5h-4zM1079 571v131h45v-131h-45zM1149 571v131h43v-131h-43z" />
<glyph unicode="T" d="M0 721q0 146 57 279.5t153 229.5t229.5 153t279.5 57t279.5 -57t230 -153t154 -229.5t57.5 -279.5t-57.5 -279.5t-154 -230t-230 -154t-279.5 -57.5t-279.5 57.5t-229.5 154t-153 230t-57 279.5zM86 721q0 -263 186 -449q89 -89 205 -136.5t242 -47.5q261 0 448 184 q90 91 137.5 206.5t47.5 242.5q0 126 -48 241.5t-137 204.5q-187 187 -448 187q-126 0 -242 -48.5t-205 -138.5q-90 -89 -138 -204t-48 -242zM188 594q0 17 12 29t29 12h224v201q2 35 35.5 60.5t80.5 25.5h301q44 0 77 -23t38 -57h2v-207h223q17 0 29 -12t12 -29t-12 -29 t-29 -12h-981q-17 0 -29 12t-12 29zM551 635h20v104h-20v-104zM600 1059q0 49 35 84t84 35t83 -34.5t34 -84.5t-34 -84.5t-83 -34.5t-84 35t-35 84zM866 635h23v104h-23v-104z" />
<glyph unicode="U" d="M-51 600l588 588l587 -588l-110 -111l-400 398v-938h-155v938l-398 -398z" />
<glyph unicode="W" d="M6 23q-6 10 -5 21q0 16 11 34l785 1331q19 32 45 32t45 -32l782 -1331q12 -19 12 -35q0 -10 -5 -20q-13 -23 -50 -23h-1569q-37 0 -51 23zM121 88h1442l-721 1227zM764 156v626h156v-626h-156zM764 889v137h154v-137h-154z" />
<glyph unicode="X" d="M0 0v831h158v-563l663 664l111 -111l-664 -661h563v-160h-831z" />
<glyph unicode="Y" d="M-102 821l110 111l664 -664v566l157 -3v-831h-831v160h563z" />
<glyph unicode="a" d="M0 711l41 16l-8 25l33 12l-9 20l834 310l94 -254l-295 -111l2 -2q5 -15 -2 -30t-22 -21l-25 -8l68 -183q4 2 14 2q29 0 49.5 -19.5t22.5 -47.5h313v29q0 17 12 28.5t27 11.5h18v125h88v-426h-88v125h-18q-15 0 -27 12t-12 27v33h-319q-21 -43 -66 -43q-29 0 -50.5 21.5 t-21.5 52.5q0 35 27 55l-70 184l-32 -12q-15 -6 -30.5 1t-21.5 22v4l-315 -119q-9 25 -33 35.5t-47 1.5l-12 33l-33 -13l-8 25l-43 -17z" />
<glyph unicode="b" d="M2 905v101v3.5t2 7t6 8.5t13 6t22 3h361l79 301q10 20 25 33q10 9 36 15t55 8.5t67 3.5t64.5 1t55 -1t31.5 0v-72h-223q-29 0 -43 -14l-72 -275h197q13 0 22 -3t13.5 -6.5t6.5 -8t2.5 -6.5t0.5 -4v-101h-721zM23 885h677l-57 -275q-159 -43 -203 -137q-14 -14 -14 -37 v-28q0 -15 8 -31q-10 -17 -10 -33v-14q0 -20 12 -35q-12 -18 -12 -43v-27q0 -26 12 -41q-10 -17 -10 -34v-17q0 -31 10 -43h-289zM459 225v27q0 15 10 26t25 11h796q15 0 26 -11t11 -26v-27q0 -15 -11 -26t-26 -11h-796q-15 0 -25 11t-10 26zM459 330v14q0 23 35 23h796 q14 0 25.5 -6.5t11.5 -16.5v-14q0 -11 -11 -18t-26 -7h-796q-35 0 -35 25zM461 121v29q0 9 7 16.5t17 7.5h818q9 0 16.5 -7.5t7.5 -16.5v-29q0 -9 -6 -19t-24.5 -23t-46.5 -23.5t-79 -17.5t-116 -7h-322q-65 0 -115.5 6.5t-79 16.5t-47 23t-24.5 23.5t-6 20.5zM461 408v28 q0 11 8 19q8 18 21.5 34.5t44 37.5t72 36.5t111.5 26t156 10.5q107 0 192 -13.5t132 -33t78 -43.5t41 -42t10 -32v-28q0 -9 -7.5 -17t-16.5 -8h-818q-10 0 -17 8t-7 17zM481 225q0 -4 4 -8t9 -4h796q5 0 9 4t4 8v27q0 12 -13 12h-796q-13 0 -13 -12v-27zM481 332q4 -2 13 -2 h796q3 0 7.5 1t5.5 1v8q1 1 -2 2q-4 2 -11 2h-796q-9 0 -13 -4v-8z" />
<glyph unicode="c" d="M0 0v102h1139v-102h-1139zM150 309v641h780v-641q0 -58 -41.5 -99.5t-100.5 -41.5h-497q-59 0 -100 41t-41 100zM975 664v288h49q60 0 102.5 -42.5t42.5 -102.5t-42.5 -101.5t-102.5 -41.5h-49z" />
<glyph unicode="d" horiz-adv-x="1331" d="M0 459q0 104 44 196t120 156l10 -63v-3q-119 -119 -119 -286q0 -164 119.5 -284t284.5 -120q151 0 266 103l25 -54q-126 -104 -291 -104q-190 0 -324.5 135t-134.5 324zM215 1143q0 50 34 84.5t83 34.5q50 0 84.5 -35t34.5 -84t-34.5 -84t-84.5 -35q-49 0 -83 34.5 t-34 84.5zM238 946q0 14 49 21l112 14h13q12 0 23 -1q16 -2 16 -7l8 -119h215q12 0 21.5 -10t9.5 -23v-43q1 -13 -8 -23t-23 -10h-207l12 -178h209q65 0 103 -51q2 -6 9 -20.5t9 -22.5l90 -280l96 32q6 1 13 -6.5t12 -19.5l12 -41q3 -10 3 -18q0 -14 -7 -17l-102 -33 q-48 -16 -72 -16q-54 0 -68 43l-106 317h-309q-49 0 -72.5 24.5t-32.5 69.5z" />
<glyph unicode="e" d="M0 117v1208q0 47 34 81t81 34h1181q47 0 82 -34t35 -81v-1208q0 -47 -35 -82t-82 -35h-1181q-47 0 -81 35t-34 82zM86 88h1239v1266h-1239v-1266zM176 756v256q2 19 19.5 32t42.5 13h153q23 0 39 -13q8 -8 12 -10q9 -14 9 -18v-8h-52q-26 0 -48.5 -16.5t-22.5 -39.5v-164 h-88v175h-13v-207q0 -15 -14 -15h-20q-6 0 -11.5 4.5t-5.5 10.5zM240 399v379h88v-114q0 -9 5.5 -16t14.5 -7h25q9 0 16 10v-252q0 -6 -4 -11t-10 -5h-33q-6 0 -11 5t-5 11v332h-25v-332q0 -6 -4 -11t-10 -5h-33q-6 0 -10 5t-4 11zM252 1137q0 25 18 43t43 18t43.5 -18 t18.5 -43t-18.5 -43.5t-43.5 -18.5t-43 18.5t-18 43.5zM332 664v288q2 21 21 35t46 14h174q26 0 45.5 -13t22.5 -32v-292q0 -6 -5 -11.5t-11 -5.5h-23q-7 0 -12.5 5.5t-5.5 11.5v233h-13v-197h-170v197h-12v-233q0 -6 -5 -11.5t-11 -5.5h-25q-6 0 -11 5.5t-5 11.5zM401 260 v428h170v-428q0 -6 -5 -11t-11 -5h-37q-7 0 -12.5 5t-5.5 11v375h-27v-375q0 -6 -5 -11t-11 -5h-39q-6 0 -11.5 5t-5.5 11zM418 1094q0 28 20 47.5t49 19.5q28 0 48 -19.5t20 -47.5q0 -29 -20 -49.5t-48 -20.5q-29 0 -49 20.5t-20 49.5zM522 1008v4q0 19 19.5 32t40.5 13 h155q22 0 39.5 -12t18.5 -29h2v-260q0 -6 -5.5 -10.5t-11.5 -4.5h-20q-6 0 -10.5 4.5t-4.5 10.5v207h-10v-175h-88v168l-2 2q-4 22 -25 36t-47 14h-51zM584 399v252q7 -10 18 -10h23q9 0 15.5 7t6.5 16v114h88v-379q0 -6 -5 -11t-11 -5h-33q-6 0 -10 5t-4 11v332h-25v-332 q0 -6 -5 -11t-11 -5h-33q-6 0 -10 5t-4 11zM598 1137q0 25 17 43t42 18q26 0 44 -18t18 -43t-18 -43.5t-44 -18.5q-24 0 -41.5 18.5t-17.5 43.5zM893 395l25 25q10 -10 53.5 -54t66.5 -67v279h35v-279l121 121l25 -25l-162 -164zM893 1026l164 162q30 -34 91.5 -93.5 t70.5 -68.5l-25 -25l-113 111l-8 10v-280h-35v280q-22 -25 -65.5 -67.5t-54.5 -53.5z" />
<glyph unicode="f" d="M0 0v1440h1440v-1440h-1440zM117 117h1208v1208h-1208v-1208zM338 750q0 157 111 267.5t268 110.5t267 -110.5t110 -267.5v-431l28 -28l-35 -131h-49l-34 131l28 28v226q-52 -79 -135 -125.5t-180 -46.5q-157 0 -268 111t-111 266zM397 750q0 -131 94 -224.5t226 -93.5 t224.5 93.5t92.5 224.5q0 132 -92.5 225.5t-224.5 93.5t-226 -93.5t-94 -225.5zM457 750q0 109 76.5 185.5t183.5 76.5t183.5 -76.5t76.5 -185.5q0 -107 -76.5 -184t-183.5 -77t-183.5 77t-76.5 184zM514 750q0 -83 59 -142t144 -59q83 0 142 59t59 142q0 84 -59 143 t-142 59q-85 0 -144 -58.5t-59 -143.5zM573 750q0 60 42 101.5t102 41.5q59 0 101 -41.5t42 -101.5q0 -59 -42.5 -101.5t-100.5 -42.5q-60 0 -102 42.5t-42 101.5zM631 750q0 -34 25.5 -59t60.5 -25t59.5 25t24.5 59q0 35 -24.5 60.5t-59.5 25.5t-60.5 -25.5t-25.5 -60.5z " />
<glyph unicode="g" d="M2 379v643h1208v-643h-1208zM55 432h1102v512l-549 -450l-553 460v-522zM96 969q469 -392 512 -426q43 34 522 426h-1034z" />
<glyph unicode="h" d="M0 719q0 146 57 279.5t153 230t229.5 154t279.5 57.5t279.5 -57.5t230 -154t154 -230t57.5 -279.5t-57.5 -279.5t-154 -229.5t-230 -153t-279.5 -57t-279.5 57t-229.5 153t-153 229.5t-57 279.5zM86 719q0 -126 48.5 -242t137.5 -205q89 -90 204.5 -138t242.5 -48 q262 0 448 186q89 89 137 205t48 242q0 260 -185 448q-188 185 -448 185q-126 0 -242 -48t-205 -137q-90 -91 -138 -206t-48 -242zM375 330v319q0 30 21 51t48 21h52v-461h-52q-28 0 -48.5 19t-20.5 51zM446 1051q0 55 37.5 93t91.5 38q36 0 66.5 -18t48.5 -48h260l45 -45 q9 -9 0 -18l-55 -56l-33 33l-30 -33l-33 33l-31 -33l-31 33l-41 -41h-51q-38 -67 -115 -67q-54 0 -91.5 37.5t-37.5 91.5zM483 1053q0 -13 10.5 -24t24.5 -11q15 0 26 10.5t11 24.5q0 15 -11 26t-26 11q-14 0 -24.5 -11t-10.5 -26zM530 258v461h93v65q0 18 13 28.5t34 10.5 h98q19 0 32 -10.5t13 -28.5v-65h94v-461h-377zM940 260v461h51q27 0 47.5 -21t20.5 -51v-319q0 -32 -20 -51t-48 -19h-51z" />
<glyph unicode="i" d="M0 721q0 146 57.5 279.5t154 229.5t230 153t279.5 57t279.5 -57t229.5 -153t153 -229.5t57 -279.5q0 -196 -96.5 -362t-262 -262.5t-360.5 -96.5t-361 96.5t-263 262.5t-97 362zM88 721q0 -128 47.5 -244t136.5 -205q91 -89 206.5 -136.5t242.5 -47.5q126 0 241.5 47.5 t204.5 136.5q91 89 139 205t48 244q0 126 -48 241.5t-139 204.5q-90 90 -205.5 138.5t-240.5 48.5q-127 0 -242.5 -48.5t-206.5 -138.5q-89 -89 -136.5 -204.5t-47.5 -241.5zM373 313v242h43v-242h-43zM469 313v242h43l92 -141l19 -37h2q-2 23 -2 37v141h43v-242h-43 l-93 140l-20 36q2 -24 2 -36v-140h-43zM672 649v393h98v-393h-98zM672 1108v88h96v-88h-96zM717 313v242h139v-39h-94v-67h80v-39h-80v-97h-45zM868 434q0 53 35.5 89t89.5 36t89.5 -36t35.5 -89t-35.5 -89t-89.5 -36t-89.5 36t-35.5 89zM913 434q0 -37 23 -61.5t57 -24.5 t57 24.5t23 61.5q0 36 -23 60t-57 24t-57 -24t-23 -60z" />
<glyph unicode="j" d="M0 393v416h393v393h418v-393h393v-416h-391v-393h-418v393h-395z" />
<glyph unicode="k" d="M0 895v90h281v-178h186v-178h186v-180h187v-179h186v-178h186v-92h-280v180h-187v178h-186v179h-186v180h-187v178h-186zM639 932v508h508v-97h-344l405 -405l-67 -68l-406 406v-344h-96z" />
<glyph unicode="l" d="M0 0h281v180h186v178h186v179h187v180h186v178h186v90h-280v-178h-187v-178h-186v-180h-186v-179h-187v-178h-186v-92zM4 938l406 405h-344v97h507v-508h-96v344l-405 -406z" />
<glyph unicode="m" d="M0 895v90h281v-178h186v-178h186v-180h187v-179h186v-178h186v-92h-280v180h-187v178h-186v179h-186v180h-187v178h-186zM639 1372l68 68l407 -406v344h94v-508h-506v97h345zM639 1374l68 68l405 -406v344h96v-508h-508v97h344zM2077 895v90h280v-178h187v-178h186v-180 h186v-179h187v-178h186v-92h-280v180h-187v178h-186v179h-187v180h-186v178h-186z" />
<glyph unicode="n" d="M0 0h281v180h186v178h186v179h187v180h186v178h186v90h-280v-178h-187v-178h-186v-180h-186v-179h-187v-178h-186v-92zM4 870v508h96v-344l406 406l67 -68l-405 -405h344v-97h-508z" />
<glyph unicode="o" d="M0 721q0 146 57 279.5t153 229.5t229.5 153t279.5 57q196 0 362 -96.5t262.5 -262t96.5 -360.5q0 -196 -96.5 -362t-262.5 -262.5t-362 -96.5q-195 0 -360.5 96.5t-262 262.5t-96.5 362zM86 721q0 -127 48.5 -243.5t137.5 -205.5t205 -136.5t242 -47.5q128 0 243.5 47.5 t204.5 136.5t137 205.5t48 243.5q0 126 -48 241.5t-137 204.5q-90 90 -205.5 138.5t-242.5 48.5q-126 0 -241.5 -48.5t-205.5 -138.5q-89 -89 -137.5 -204.5t-48.5 -241.5zM250 836q-1 0 -1 0.5t3 0.5q1 0 3 -1h3q2 2 7 1.5t9 0.5h25h16h27q1 2 14 2h27q1 1 7 1t9 1h27h12 h29q17 -32 50.5 -96t49.5 -95q-10 6 -30.5 17.5t-30.5 17.5q-4 0 -8 -4.5t-6 -5.5q-4 -8 -17 -20.5t-20 -26t-4 -31.5q2 -5 5 -8t9.5 -7t7.5 -5q8 -3 -19 -3h-8h-4q-5 0 -16.5 -0.5t-21 -0.5t-15.5 1q-110 18 -117 99q-4 18 0 31q3 52 41 90q-10 8 -32.5 21t-30.5 20z M279 604q2 0 4 -2t4.5 -5.5t3.5 -4.5q48 -31 94 -33h53q7 2 51 2h91q6 1 22 1t23 1h80v-33v-24q2 -7 1.5 -20.5t0.5 -20.5v-84q4 -25 0 -51v-4h-29h-96q-6 -2 -20 -1.5t-23 -0.5h-62q-3 1 -12.5 0.5t-9.5 1.5q-3 0 -5.5 1t-6 2.5t-5.5 2.5q-2 2 -6 7t-6 7q-29 43 -75 130 t-66 120q-1 0 -2.5 3.5t-3.5 4.5zM377 946q21 33 94 158q3 5 9.5 15.5t10 16t10.5 13.5t13 12t16 8t21 5q1 2 6.5 2t5.5 -2q59 -5 107 -46q11 -7 14 -16q16 -19 33 -49q-94 -142 -150 -221q-49 26 -190 104zM571 1184q8 4 31 4h6q1 2 6.5 1.5t8.5 0.5h51h45h86h18h6 q1 -1 6.5 -0.5t6.5 -1.5q8 -1 20.5 -2t19.5 -1.5t16 -2.5t16 -5.5t12 -9.5q2 -3 6.5 -13t5.5 -13q4 -7 21 -33.5t24 -42.5q8 4 17.5 9.5t16.5 10t15.5 10t16.5 9.5q-9 -23 -21 -51t-22 -50.5t-23 -51.5t-22 -52q-21 2 -101.5 9.5t-124.5 9.5q7 6 18 12.5t23 12.5t19 11 q-7 12 -23.5 41.5t-26 45.5t-24 39t-27.5 42q-4 2 -7 5t-6 7.5t-5 6.5q-48 41 -105 43zM764 434q19 30 56.5 90.5t56.5 91.5q4 4 4 0q-1 -10 -1 -31t-1 -30v-10h8q6 2 20 1.5t21 0.5h82q5 1 13 1t18.5 -0.5t15.5 -0.5q2 0 5.5 1t6.5 1q75 19 119 86q-2 -14 -21 -47 q-11 -28 -34 -66q-10 -25 -33 -69q-20 -49 -56 -95q-17 -25 -45 -30q-10 -2 -22.5 -2.5t-32 0t-26.5 0.5h-37v-76q-2 0 -2 2q-20 30 -58 91t-57 91zM885 795q25 14 90.5 54t103.5 60q11 -20 38.5 -72.5t43.5 -80.5q25 -45 29 -58q1 -3 1 -10t-1 -10q-2 -30 -29 -57 q-1 -2 -2.5 -3.5t-3 -3.5t-2.5 -4q-2 -1 -7.5 -6t-8.5 -6q-14 -14 -43 -27q-34 -15 -49 -15q-3 0 -5 1q-3 1 -7 6t-8.5 13t-6.5 10q-103 164 -133 209z" />
<glyph unicode="p" d="M0 721q0 146 57 279.5t153 229.5t229.5 153t279.5 57t279.5 -57t230 -153t154 -229.5t57.5 -279.5t-57.5 -279.5t-154 -230t-230 -154t-279.5 -57.5t-279.5 57.5t-229.5 154t-153 230t-57 279.5zM86 721q0 -263 186 -449q89 -89 205 -136.5t242 -47.5q261 0 448 184 q90 91 137.5 206.5t47.5 242.5q0 126 -48 241.5t-137 204.5q-187 187 -448 187q-126 0 -242 -48.5t-205 -138.5q-90 -89 -138 -204t-48 -242zM188 721q0 -17 12 -29t29 -12h979q17 0 29 12t12 29t-12 29t-29 12h-979q-17 0 -29 -12t-12 -29zM410 872q20 -22 57 -22 q25 0 40 13.5t15 33.5q0 21 -17 33t-34.5 18.5t-17.5 14.5q0 12 16 12q8 0 16.5 -3.5t12.5 -7.5l4 -3l16 30q-16 19 -49 19q-24 0 -39.5 -13t-15.5 -34t17 -33.5t34.5 -19t17.5 -13.5q0 -12 -16 -12q-8 0 -17.5 4t-14.5 8l-5 4zM430 487q0 -34 23 -57.5t57 -23.5 q35 0 58.5 23.5t23.5 57.5q0 33 -23.5 55.5t-58.5 22.5q-34 0 -57 -23t-23 -55zM469 487q0 19 12 31t29 12q19 0 31 -12t12 -31q0 -20 -12 -33.5t-31 -13.5q-17 0 -29 13.5t-12 33.5zM530 975h48v-123h36v123h48v31h-132v-31zM616 410h39v71l-2 27q9 -17 15 -27l43 -71h37 v153h-37v-71l2 -27h-2q-7 17 -13 27l-43 71h-39v-153zM653 852h39l10 33h48l10 -33h39l-54 154h-38zM711 915l8 29l6 27q4 -17 8 -27l8 -29h-30zM784 410h101v30h-64v123h-37v-153zM815 852h39v57h47v33h-47v33h55v31h-94v-154zM877 563l51 -92v-61h37v61l51 92h-43l-17 -37 l-10 -22q-4 12 -10 22l-16 37h-43zM934 852h39v57h47v33h-47v33h55v31h-94v-154z" />
<glyph unicode="q" d="M0 721q0 146 57.5 279.5t154 229.5t230 153t279.5 57t279.5 -57t229.5 -153t153 -229.5t57 -279.5q0 -196 -96.5 -362t-262 -262.5t-360.5 -96.5t-361 96.5t-263 262.5t-97 362zM88 721q0 -128 47.5 -244t136.5 -205q91 -89 206.5 -136.5t242.5 -47.5q126 0 241.5 47.5 t204.5 136.5q90 90 138.5 206t48.5 243q0 125 -48.5 240.5t-138.5 205.5t-205.5 138.5t-240.5 48.5q-127 0 -242.5 -48.5t-206.5 -138.5q-89 -89 -136.5 -204.5t-47.5 -241.5zM373 313v242h43v-242h-43zM467 313v242h45l90 -141l21 -37h2q-4 23 -4 37v141h45v-242h-45 l-91 140l-20 36q2 -24 2 -36v-140h-45zM571 1141q6 6 17 15t48 23.5t77 14.5q68 0 116 -38t48 -103q0 -35 -13.5 -62.5t-33 -46t-39 -34.5t-33 -35t-13.5 -41v-31h-92v37q0 30 13 55t31.5 42t36.5 32.5t31 34.5t13 40q0 26 -21 44t-52 18q-19 0 -39 -8t-30 -16l-11 -7z M653 649v88h92v-88h-92zM717 313v242h139v-39h-94v-67h80v-39h-80v-97h-45zM868 434q0 53 35.5 89t89.5 36q53 0 89 -36.5t36 -88.5t-36 -88.5t-89 -36.5q-54 0 -89.5 36t-35.5 89zM913 434q0 -37 23 -61.5t57 -24.5q33 0 56.5 25t23.5 61t-23.5 60t-56.5 24q-34 0 -57 -24 t-23 -60z" />
<glyph unicode="r" horiz-adv-x="1126" d="M0 977v434q0 18 14 25.5t27.5 -0.5t13.5 -27v-322h45v326q0 16 13.5 23t27 0t13.5 -25v-324h47v324q0 18 12.5 25.5t25.5 0t13 -25.5v-324h47v324q0 18 13.5 25.5t26.5 0t13 -25.5v-440q0 -37 -29 -68t-69 -31v-788q0 -39 -24 -61.5t-53 -22.5t-53 22.5t-24 61.5v788 q-41 0 -70.5 30t-29.5 75zM524 571v740q0 61 36.5 95.5t80.5 34.5t80.5 -34.5t36.5 -95.5v-1225q0 -32 -16 -54t-38 -26q-11 -2 -21 -2l-23 3q-22 5 -38 26.5t-16 52.5v485h-82z" />
<glyph unicode="s" horiz-adv-x="1433" d="M4 191q-2 3 -3 7q0 4 3 9l387 733q3 5 7.5 7t8.5 1t8 -4t4.5 -8t-1.5 -10l-389 -733q-4 -8 -12.5 -8.5t-12.5 6.5zM199 84l288 829q2 9 11 10t14.5 -5t1.5 -15l-289 -829q-3 -12 -16 -8q-11 4 -11 13q0 2 1 5zM356 16l99 568q0 14 14 12t14 -16l-98 -568q-2 -9 -10 -11 t-14.5 2.5t-4.5 12.5zM369 987v12q0 9 14 9h6q4 1 7.5 5t5.5 7l1 4q9 34 33.5 57t45.5 29l20 6h145q9 -2 22.5 -6.5t40 -28t35.5 -57.5q5 -14 15 -16h10q12 0 12 -9v-12q0 -10 -12 -10h-387q-14 0 -14 10zM494 1157v23q0 10 10 10l143 2q10 0 10 -12v-23q0 -12 -10 -12h-143 q-10 0 -10 12zM502 1227v16v16v17q1 18 12 46.5t31 49.5q41 51 127 51h260v-145h-260q-19 0 -19 -4q-6 -3 -6 -21v-26h-145zM553 63l4 748q0 14 14 14q15 0 15 -14l-4 -748q0 -14 -15 -14q-6 0 -10.5 4t-3.5 10zM629 905q-1 3 -1 5q0 8 9 14q13 3 20 -11l287 -829 q8 -11 -7 -17q-14 -4 -19 7zM662 580q-1 2 -1 4q0 4 3 7q4 5 10 5q5 2 10 -1t6 -9l96 -568q1 -6 -2.5 -11t-9.5 -7q-13 0 -16 12zM725 928q-1 3 -1 6q0 8 10 12q4 2 7 2q7 0 11 -8l389 -733q2 -3 2 -7q0 -2 -1 -4q-2 -6 -7 -10q-4 -1 -7 -1q-9 0 -14 8z" />
<glyph unicode="t" d="M-90 938l104 104q15 15 35 11l690 -181l316 316q28 28 67.5 28t67.5 -28t28 -67.5t-28 -67.5l-316 -316l179 -688q7 -21 -9 -37l-104 -104q-6 -6 -12 -6q-7 0 -13 10l-288 580l-246 -248l20 -140q3 -21 -12 -36l-67 -68q-15 -15 -25 4l-96 195l12 10l-2 2l-10 -12 l-197 96q-18 11 -4 24l70 70q12 12 34 12l142 -22l248 248l-580 286q-10 6 -10 13q0 6 6 12z" />
<glyph unicode="u" d="M5 630q2 1 5 1h68q11 0 14 -10l25 -138q-46 36 -90 99q-24 33 -24 44q0 3 2 4zM12 567q50 -75 111 -112l65 -357q3 -10 15 -10h133q9 0 12 10l72 371q44 31 108 102l-106 -561q0 -10 -12 -10h-283q-9 0 -12 10zM164 557q0 5 4 8l39 41q10 6 16 0l41 -41q8 -8 0 -16 l-41 -41q-6 -6 -16 0l-39 41q-4 3 -4 8zM217 238v69q0 5 3.5 8.5t8.5 3.5h70q10 0 10 -12v-69q0 -11 -10 -11h-70q-12 0 -12 11zM254 817q-4 4 -4 7.5t4 6.5l35 35q8 8 16 0l35 -35q7 -7 0 -14l-35 -35q-8 -8 -16 0zM395 1008q-1 12 6 21t19 11l59 11l96 16l70 180 q0 2 1 4.5t1 3.5q11 21 18 31.5t23 18.5t39 8h299q43 0 76 -23t39 -57v-504q0 -12 -8.5 -20.5t-20.5 -8.5h-39q-12 0 -21.5 8.5t-9.5 20.5v401h-20v-339h-295v339h-2l-16 7l-60 -146q-9 -14 -18 -14l-103 -16l-47 -9l-45 -8q-12 -2 -22 5.5t-11 19.5zM424 500l25 121 q0 10 12 10h67q12 0 9 -10v-9q-62 -75 -113 -112zM727 31v739h295v-739q0 -12 -9.5 -20.5t-21.5 -8.5h-63q-12 0 -20.5 8.5t-8.5 20.5v649h-49v-649q0 -12 -8.5 -20.5t-20.5 -8.5h-65q-12 0 -20.5 8.5t-8.5 20.5zM754 1470q0 50 34.5 84.5t83.5 34.5q50 0 84.5 -34.5 t34.5 -84.5q0 -49 -34.5 -83.5t-84.5 -34.5t-84 34t-34 84z" />
<glyph unicode="w" d="M0 399h104l50 -249l6 -44q2 19 8 44l61 249h78l62 -249l6 -44h2q0 19 4 44l55 249h101l-101 -399h-110l-50 201l-8 47h-2q0 -20 -6 -47l-51 -201h-111zM279 1012q0 140 95 243t230 103q146 0 228.5 -94t82.5 -246q0 -109 -57 -201h-168l-10 47q-38 -34 -59 -41 q-22 -8 -50 -8q-68 0 -103.5 54t-35.5 137t43.5 139.5t114.5 56.5q28 0 47 -6t43 -20v20h63v-334h91q12 22 19 67t7 87q0 131 -66 210t-188 79q-116 0 -193 -86t-77 -207q0 -129 73 -211t195 -82q73 0 133 18v-57q-70 -14 -133 -14q-143 0 -234 98.5t-91 247.5zM500 1008 q0 -62 19 -96.5t67 -34.5q46 0 94 41v204q-46 23 -80 23q-51 0 -75.5 -37.5t-24.5 -99.5zM596 0v399h98v-399h-98zM788 0v399h246v-84h-147v-84h121v-84h-121v-147h-99zM1096 0v399h98v-399h-98z" />
<glyph unicode="x" d="M0 -2v831h831l-2 -157h-561l664 -664l-111 -110l-663 663v-563h-158z" />
<glyph unicode="y" d="M-102 8l663 664h-563v157h831v-831h-159l2 563l-664 -663z" />
<glyph unicode="&#xa9;" horiz-adv-x="2560" d="M0 889h82l47 -225l59 225h72l62 -225l47 225h82l-84 -326h-84l-58 209l-59 -209h-84zM31 10v326h162q52 0 84 -26.5t32 -82.5q0 -35 -20 -63q-19 -30 -48.5 -38.5t-74.5 -8.5h-53v-107h-82zM31 1116v326h102q21 0 31 -2q65 0 106 -35q52 -35 52 -123q0 -73 -37 -119 q-25 -31 -74 -43q-18 -4 -53 -4h-127zM113 176h49q67 0 67 51q0 28 -17 37.5t-48 9.5h-51v-98zM113 1182h24q53 0 78 20.5t25 75.5q0 71 -50 90q-16 4 -45 4h-32v-190zM340 10v326h82v-258h127v-68h-209zM367 1116v326h239v-64h-160v-59h150v-62h-150v-77h175v-64h-254z M459 727q0 68 40.5 120t121.5 52q69 0 114 -45q49 -49 49 -131q0 -86 -61 -135q-40 -35 -102 -35q-70 0 -115 47q-47 49 -47 127zM539 727q0 -49 21.5 -76.5t60.5 -27.5q36 0 57 24q23 23 27 70q0 54 -23 82q-12 18 -31 24q-14 6 -30 6q-42 0 -62 -30.5t-20 -71.5zM567 10 l121 326h84l119 -326h-86l-17 51h-118l-17 -51h-86zM641 1176l61 38q43 -43 95 -43q11 0 24 5q2 0 10 3t16.5 11.5t8.5 19.5q0 18 -20.5 26t-56 11.5t-42.5 5.5q-78 20 -78 86q0 47 29 76q38 33 103 33q60 0 106 -31q7 -5 37 -28l-62 -43q-25 25 -53 34q-1 0 -12 2t-19 2 q-23 0 -36 -10.5t-13 -23.5t9 -17q2 -3 5.5 -5t7 -3.5t9.5 -2.5t10 -1.5t13 -1.5t14 -2q16 -2 53 -10q53 -9 70 -52q8 -8 8 -34q0 -27 -14 -50q-27 -52 -103 -61q-5 0 -16 -1t-17 -1q-66 0 -122 39q-13 13 -25 29zM688 121h82l-41 137zM831 563v326h146q19 0 29 -2 q63 0 92 -49q12 -30 12 -56q0 -42 -27 -65q-4 -6 -8.5 -9.5t-7.5 -5t-12 -5t-13 -5.5l76 -129h-90l-65 117h-50v-117h-82zM913 739h66q12 0 22 4q27 8 27 41q0 43 -47 43h-68v-88zM920 10v326h79l119 -205l-4 205h78v-326h-80l-117 201l2 -201h-77zM981 1116v326h82v-326 h-82zM1110 1278q0 109 80 154q30 20 80 20q65 0 114 -43q5 -4 29 -33l-61 -37q-1 1 -4 5.5t-8 11t-9 10.5q-20 18 -55 18q-86 0 -86 -104q0 -52 22 -80q5 -6 14.5 -11.5t10.5 -6.5q24 -8 39 -8q46 0 63 34q3 4 4.5 10.5t2.5 11t2 5.5h-74v61h141v-180h-63v29 q-18 -13 -21 -15q-32 -22 -76 -22q-67 0 -106 52t-39 118zM1157 563v326h76v-133l123 133h98l-115 -121l123 -205h-92l-86 148l-51 -54v-94h-76zM1249 10v76h72v-76h-72zM1350 172q0 63 39.5 118.5t115.5 55.5q72 0 117 -51l9 -13.5l9 -13.5t5 -8l-66 -31q-2 5 -5.5 11.5 t-4.5 7.5q-23 31 -60 31q-35 0 -57 -28.5t-22 -76.5q0 -35 14 -60.5t31 -35.5q15 -10 34 -10q10 0 18.5 2t15 6t12 7.5t10 9.5t7 9t5.5 8.5t4 6.5l64 -33q-5 -7 -21 -31q-46 -53 -119 -53q-33 0 -67 14q-29 14 -48.5 36.5t-27 48.5t-10 42t-2.5 31zM1470 1116v326h80 l119 -205l-4 205h78v-326h-80l-119 201l4 -201h-78zM1661 174q0 67 41 119.5t121 52.5q65 0 116 -45q48 -51 48 -131q0 -85 -62 -135q-40 -35 -102 -35q-70 0 -115 47q-47 49 -47 127zM1743 174q0 -104 82 -104q34 0 55 24q23 23 27 70q0 50 -21 82q-20 20 -33 24 q-14 6 -30 6q-42 0 -61 -30t-19 -72zM2034 10v326h118l62 -227l59 227h119v-326h-78l6 262l-71 -262h-70l-74 262l9 -262h-80z" />
<glyph unicode="&#x2000;" horiz-adv-x="794" />
<glyph unicode="&#x2001;" horiz-adv-x="1589" />
<glyph unicode="&#x2002;" horiz-adv-x="794" />
<glyph unicode="&#x2003;" horiz-adv-x="1589" />
<glyph unicode="&#x2004;" horiz-adv-x="529" />
<glyph unicode="&#x2005;" horiz-adv-x="397" />
<glyph unicode="&#x2006;" horiz-adv-x="264" />
<glyph unicode="&#x2007;" horiz-adv-x="264" />
<glyph unicode="&#x2008;" horiz-adv-x="198" />
<glyph unicode="&#x2009;" horiz-adv-x="317" />
<glyph unicode="&#x200a;" horiz-adv-x="88" />
<glyph unicode="&#x202f;" horiz-adv-x="317" />
<glyph unicode="&#x205f;" horiz-adv-x="397" />
<glyph unicode="&#xe000;" horiz-adv-x="829" d="M0 0v829h829v-829h-829z" />
</font>
</defs>
</svg>
